Жизнь Пи скачать торрент в Хорошем Качестве

Уважаемый гость, на данной странице Вам доступен материал по теме: Жизнь Пи скачать торрент в Хорошем Качестве. Скачивание возможно на компьютер и телефон через торрент, а также сервер загрузок по ссылке ниже. Рекомендуем также другие статьи из категории «Торренты».

Жизнь Пи скачать торрент в Хорошем Качестве.rar
Закачек 1548
Средняя скорость 3820 Kb/s

Жизнь Пи скачать торрент в Хорошем Качестве

384.00 kbps avg | Авторский (одноголосый, закадровый), Ю.Сербин |
Аудио#3: english: 48 kHz, AC3, 3/2 (L,C,R,l,r) + LFE ch,

5300 kbps, Auto Letterboxed
Аудио: Аудио 1: 48 kHz, Dolby AC3 5.1 448 kbps, английский

Жизнь Пи через торрент

2008 kbps avg, 0.303 bit/pixel
Аудио: 48 kHz, AC3 Dolby Digital, 3/2 (L,C,R,l,r) + LFE ch, 448.00 kbps Constant |Дубляж|

384.00 kbps avg | Оригинальный |
Аудио#4: ukrainian : 48 kHz, AC3, 3/2 (L,C,R,l,r) + LFE ch,

Рабочий график Ридли Скотта пополнился еще одним проектом. Ожидается, что в ближайшее время он экранизирует «Сагу о Мерлине» под эгидой Disney.

Чаптеры: есть
Субтитры: Russian, «Forced» / Russian, «Full R5» / Russian, «Full BD» / Ukrainian, «Forced / Ukrainian, «Full BD» / English, «Forced» / English, «Full BD» / English, «SDH» / English, «SDH Colored»

Жизнь Пи (2013) (Life of Pi)

Субтитры: Русские (форсированные, полные (R5),полные (BD)), Украинские (форсированные (vinalord), полные (BD)), Английские (форсированные, полные (BD), полные SDH (BD)) (*.srt, отключаемые)
Перевод: Профессиональный (полное дублирование) Blu-Ray + Оригинальная звуковая дорожка

Перевод: Профессиональный (дублированный) |Лицензия|
Cубтитры: русские (форсированные, на французскую и индийскую речь) (вшитые)

4702.00 kbps avg
Субтитры: Russian (BD), Russian (Forced), Russian (R5), Ukranian, Ukranian (Forced), English, English (SDH), English (forced)

2008 kbps avg, 0.303 bit/pixel
Аудио: 48 kHz, AC3 Dolby Digital, 3/2 (L,C,R,l,r) + LFE ch, 448.00 kbps Constant |Дубляж|

Жизнь Пи

128.00 kbps (Английский)
Субтитры: Русские, Украинские, Английские (отключаемые)
Видео: Идентификатор : 1 Формат : AVC Формат/Информация : Advanced Video Codec Профиль формата : High@L4.1 Параметр CABAC формата : Да Параметр ReFrames формата : 12 кадров Идентификатор кодека : V_MPEG4/ISO/AVC Продолжительность : 2 ч. 6 м. Битрейт : 1250 Кбит/сек Ширина : 960 пикселей Высота : 520 пикселей Соотношение сторон : 1,85:1 Режим частоты кадров : Постоянный Частота кадров : 23,976 кадра/сек Цветовое пространство : YUV Субдискретизация насыщенности : 4:2:0 Битовая глубина : 8 бит Тип развёртки : Прогрессивная Бит/(Пиксели*Кадры) : 0.104 Размер потока : 1,08 Гбайт (75%) Библиотека кодирования : x264 core 130 r2273 b3065e6 Настройки программы : cabac=1 / ref=12 / deblock=1:-2:-1 / analyse=0x3:0x113 / me=umh / subme=10 / psy=1 / psy_rd=0.38:0.10 / mixed_ref=1 / me_range=32 / chroma_me=1 / trellis=2 / 8x8dct=1 / cqm=0 / deadzone=21,11 / fast_pskip=0 / chroma_qp_offset=-3 / threads=3 / lookahead_threads=1 / sliced_threads=0 / nr=0 / decimate=1 / interlaced=0 / bluray_compat=0 / constrained_intra=0 / bframes=9 / b_pyramid=2 / b_adapt=2 / b_bias=0 / direct=3 / weightb=1 / open_gop=0 / weightp=2 / keyint=250 / keyint_min=23 / scenecut=40 / intra_refresh=0 / rc_lookahead=40 / rc=2pass / mbtree=1 / bitrate=1250 / ratetol=1.0 / qcomp=0.60 / qpmin=0 / qpmax=69 / qpstep=4 / cplxblur=20.0 / qblur=0.5 / ip_ratio=1.40 / aq=1:1.00 Default : Да Forced : Нет
Аудио #1: Идентификатор : 2 Формат : AC-3 Формат/Информация : Audio Coding 3 Расширение режима : CM (complete main) Параметр Endianness формата : Big Идентификатор кодека : A_AC3 Продолжительность : 2 ч. 6 м. Вид битрейта : Постоянный Битрейт : 128 Кбит/сек Каналы : 2 канала Расположение каналов : Front: L R Частота : 48,0 КГц Битовая глубина : 16 бит Метод сжатия : С потерями Размер потока : 116 Мбайт (8%) Заголовок : Дублированный Язык : Russian Default : Да Forced : Нет
Аудио #2: Идентификатор : 3 Формат : AC-3 Формат/Информация : Audio Coding 3 Расширение режима : CM (complete main) Параметр Endianness формата : Big Идентификатор кодека : A_AC3 Продолжительность : 2 ч. 6 м. Вид битрейта : Постоянный Битрейт : 128 Кбит/сек Каналы : 2 канала Расположение каналов : Front: L R Частота : 48,0 КГц Битовая глубина : 16 бит Метод сжатия : С потерями Размер потока : 116 Мбайт (8%) Заголовок : Дублированный Язык : Ukrainian Default : Нет Forced : Нет
Аудио #3: Идентификатор : 4 Формат : AC-3 Формат/Информация : Audio Coding 3 Расширение режима : CM (complete main) Параметр Endianness формата : Big Идентификатор кодека : A_AC3 Продолжительность : 2 ч. 6 м. Вид битрейта : Постоянный Битрейт : 128 Кбит/сек Каналы : 2 канала Расположение каналов : Front: L R Частота : 48,0 КГц Битовая глубина : 16 бит Метод сжатия : С потерями Размер потока : 116 Мбайт (8%) Заголовок : Оригинал Язык : English Default : Нет Forced : Нет

1446 kbps avg, 0.238 bit/pixel
Аудио: 48 kHz, AC3 Dolby Digital, 2/0 (L,R) ch, 192.00 kbps Constant |Дубляж|

Статьи по теме