Университет Монстров скачать торрент в Хорошем Качестве

Уважаемый гость, на данной странице Вам доступен материал по теме: Университет Монстров скачать торрент в Хорошем Качестве. Скачивание возможно на компьютер и телефон через торрент, а также сервер загрузок по ссылке ниже. Рекомендуем также другие статьи из категории «Торренты».

Университет Монстров скачать торрент в Хорошем Качестве.rar
Закачек 577
Средняя скорость 4397 Kb/s

Университет Монстров скачать торрент в Хорошем Качестве

8.1 Mbps
Аудио: #1 — Русский / AC3 / 48 KHz / 5.1 ch / 640 Kbps (Дубляж — BD3D EUR)
Субтитры: — Внешние (SRT UTF-8)

2091 kbps avg, 0.30 bit/pixel
Аудио #1: 48 kHz, AC3 Dolby Digital, 3/2 (L,C,R,l,r) + LFE ch,

Университет монстров

1499 kbps avg, 0.22 bit/pixel
Аудио: AC3 / 5.1 ch / 448 kbps / Русский дубляж, BD EUR
Видео: Идентификатор : 0 Формат : MPEG-4 Visual Профиль формата : Advanced Simple@L5 Параметр BVOP формата : 2 Параметр QPel формата : Нет Параметр GMC формата : Без точки перехода Параметр матрицы формата : Выборочная Идентификатор кодека : XVID Идентификатор кодека/Подсказка : XviD Продолжительность : 1 ч. 44 м. Битрейт : 1499 Кбит/сек Ширина : 720 пикселей Высота : 400 пикселей Соотношение сторон : 16:9 Частота кадров : 23,976 кадра/сек Цветовое пространство : YUV Субдискретизация насыщенности : 4:2:0 Битовая глубина : 8 бит Тип развёртки : Прогрессивная Метод сжатия : С потерями Бит/(Пиксели*Кадры) : 0.217 Размер потока : 1,09 Гбайт (77%) Библиотека кодирования : XviD 73
Аудио: Идентификатор : 1 Формат : AC-3 Формат/Информация : Audio Coding 3 Расширение режима : CM (complete main) Параметр Endianness формата : Big Идентификатор кодека : 2000 Продолжительность : 1 ч. 44 м. Вид битрейта : Постоянный Битрейт : 448 Кбит/сек Каналы : 6 каналов Расположение каналов : Front: L C R, Side: L R, LFE Частота : 48,0 КГц Битовая глубина : 16 бит Метод сжатия : С потерями Размер потока : 334 Мбайт (23%) Выравнивание : Разделение по промежуткам Продолжительность промежутка : 42 мс. (1,00 видеокадр) Время предзагрузки промежутка : 500 мс.

8.1 Mbps
Аудио: #1 — Русский / AC3 / 48 KHz / 5.1 ch / 640 Kbps (Дубляж — BD3D EUR)
Субтитры: (SRT)

Статьи по теме